素材TV

 找回密码
 立即注册

QQ登录

只需一步,快速开始

[韩国Live现场] [素材TV]Apink - Only One(SBS Inkigayo 10-23 )(1080p/mp4/191M)高清视频下载

[复制链接]

该用户从未签到

43

主题

1048

帖子

31

素材币

素材尊者

Rank: 6Rank: 6

积分
1121
QQ
发表于 2016-11-7 13:04:36 | 显示全部楼层 |阅读模式

 充值月费VIP  免回复 每日送素材币

 充值年费VIP  免回复 免素材币 各种VIP资源 任意下载

 VIP介绍详情请点击

[素材TV]Apink - Only One(SBS Inkigayo 10-23 )(1080p/mp4/191M)高清视频下载

[素材TV]Apink - Only One(SBS Inkigayo 10-23 )(1080p/mp4/191M)高清视频下载,素材TV



  • General
  • Complete name                  : C:\Apink - Only One(SBS Inkigayo 10-23 ) .mp4
  • Format                         : MPEG-4
  • Format profile                 : Base Media
  • Codec ID                       : isom (isom/iso2/avc1/mp41)
  • File size                      : 192 MiB
  • Duration                       : 3 min 14 s
  • Overall bit rate               : 8 288 kb/s
  • Writing application            : Lavf57.55.100

  • Video
  • ID                             : 1
  • Format                         : AVC
  • Format/Info                    : Advanced Video Codec
  • Format profile                 : High@L4.1
  • Format settings, CABAC         : Yes
  • Format settings, ReFrames      : 4 frames
  • Codec ID                       : avc1
  • Codec ID/Info                  : Advanced Video Coding
  • Duration                       : 3 min 14 s
  • Bit rate                       : 8 000 kb/s
  • Width                          : 1 920 pixels
  • Height                         : 1 080 pixels
  • Display aspect ratio           : 16:9
  • Frame rate mode                : Constant
  • Frame rate                     : 29.970 (30000/1001) FPS
  • Color space                    : YUV
  • Chroma subsampling             : 4:2:0
  • Bit depth                      : 8 bits
  • Scan type                      : Progressive
  • Bits/(Pixel*Frame)             : 0.129
  • Stream size                    : 187 MiB (98%)
  • Writing library                : x264 core 148 r2721 72d53ab
  • Encoding settings              : cabac=1 / ref=3 / deblock=1:0:0 / analyse=0x3:0x113 / me=hex / subme=7 / psy=1 / psy_rd=1.00:0.00 / mixed_ref=1 / me_range=16 / chroma_me=1 / trellis=1 / 8x8dct=1 / cqm=0 / deadzone=21,11 / fast_pskip=1 / chroma_qp_offset=-2 / threads=6 / lookahead_threads=1 / sliced_threads=0 / nr=0 / decimate=1 / interlaced=0 / bluray_compat=0 / constrained_intra=0 / bframes=3 / b_pyramid=2 / b_adapt=1 / b_bias=0 / direct=1 / weightb=1 / open_gop=0 / weightp=2 / keyint=250 / keyint_min=25 / scenecut=40 / intra_refresh=0 / rc_lookahead=40 / rc=abr / mbtree=1 / bitrate=8000 / ratetol=1.0 / qcomp=0.60 / qpmin=0 / qpmax=69 / qpstep=4 / ip_ratio=1.40 / aq=1:1.00

  • Audio
  • ID                             : 2
  • Format                         : AAC
  • Format/Info                    : Advanced Audio Codec
  • Format profile                 : LC
  • Codec ID                       : 40
  • Duration                       : 3 min 14 s
  • Bit rate mode                  : Constant
  • Bit rate                       : 196 kb/s
  • Channel(s)                     : 2 channels
  • Channel positions              : Front: L R
  • Sampling rate                  : 48.0 kHz
  • Frame rate                     : 46.875 FPS (1024 spf)
  • Compression mode               : Lossy
  • Stream size                    : 4.55 MiB (2%)
  • Language                       : Korean
  • Default                        : Yes
  • Alternate group                : 1

  • Text
  • ID                             : 1-1
  • Format                         : EIA-708
  • Muxing mode                    : SCTE 128 / DTVCC Transport
  • Muxing mode, more info         : Muxed in Video #1
  • Duration                       : 3 min 14 s
  • Bit rate mode                  : Constant
  • Stream size                    : 0.00 Byte (0%)
  • Encoded stream size            : 0.00 Byte (0%)

复制代码

命令压制,效果与AVS脚本压制存在一丝差距,如有什么意见或建议尽请回复或私信谢谢!


游客,如果您要查看本帖隐藏内容请回复


素材TV——高清视频素材 高清MV 高清广告 4K视频 4K视频下载 AE模板 无损音乐 LED背景视频 高清纪录片下载
素材TV—最专业的影视素材分享平台,有了你的支持,我们会做的更好……
回复

使用道具 举报

使用高级回帖 (可批量传图、插入视频等)

发表回复

您需要登录后才可以回帖 登录 | 立即注册

本版积分规则   Ctrl + Enter 快速发布  

发帖时请遵守我国法律,网站会将有关你发帖内容、时间以及发帖IP地址等记录保留,只要接到合法请求,即会将信息提供给有关政府机构。
Powered by Discuz! X3.2 滇ICP备15000709号-1    |网站地图
Copyright © 2011-2015 Www.SucaiTV.Com All Rights Reserved.
快速回复 返回顶部 返回列表
keywords:高清视频素材 高清MV 高清广告 4K视频 AE模板 无损音乐 LED背景视频