素材TV

 找回密码
 立即注册

QQ登录

只需一步,快速开始

[韩国MV] [素材TV]Ailee.Feat.Yoonmirae - Home [百度网盘/MP4/169M]高清MV视频下载

[复制链接]

该用户从未签到

57

主题

1040

帖子

31

素材币

素材尊者

Rank: 6Rank: 6

积分
1138
QQ
发表于 2016-10-8 02:01:05 | 显示全部楼层 |阅读模式

 充值月费VIP  免回复 每日送素材币

 充值年费VIP  免回复 免素材币 各种VIP资源 任意下载

 VIP介绍详情请点击

[素材TV]Ailee.Feat.Yoonmirae - Home [百度网盘/MP4/169M]高清MV视频下载

[素材TV]Ailee.Feat.Yoonmirae - Home [百度网盘/MP4/169M]高清MV视频下载,素材TV

General
Complete name                  : D:\Ailee - Home (Feat. Yoonmirae).MP4
Format                         : MPEG-4
Format profile                 : Base Media
Codec ID                       : isom
File size                      : 169 MiB
Duration                       : 3mn 56s
Overall bit rate mode          : Variable
Overall bit rate               : 6 014 Kbps
Encoded date                   : UTC 2016-10-05 18:45:54
Tagged date                    : UTC 2016-10-05 18:45:54

Video
ID                             : 2
Format                         : AVC
Format/Info                    : Advanced Video Codec
Format profile                 : High@L5.0
Format settings, CABAC         : Yes
Format settings, ReFrames      : 13 frames
Codec ID                       : avc1
Codec ID/Info                  : Advanced Video Coding
Duration                       : 3mn 56s
Bit rate mode                  : Variable
Bit rate                       : 6 000 Kbps
Maximum bit rate               : 12.0 Mbps
Width                          : 1 920 pixels
Height                         : 1 080 pixels
Display aspect ratio           : 16:9
Frame rate mode                : Constant
Frame rate                     : 23.976 fps
Standard                       : Component
Color space                    : YUV
Chroma subsampling             : 4:2:0
Bit depth                      : 8 bits
Scan type                      : Progressive
Bits/(Pixel*Frame)             : 0.121
Stream size                    : 166 MiB (98%)
Writing library                : x264 core 144
Encoding settings              : cabac=1 / ref=13 / deblock=1:0:0 / analyse=0x3:0x113 / me=hex / subme=7 / psy=1 / psy_rd=1.00:0.00 / mixed_ref=1 / me_range=16 / chroma_me=1 / trellis=1 / 8x8dct=1 / cqm=1 / deadzone=21,11 / fast_pskip=1 / chroma_qp_offset=-2 / threads=6 / lookahead_threads=1 / sliced_threads=0 / slices=1 / nr=0 / decimate=1 / interlaced=0 / minigop=0 / stitchable=1 / constrained_intra=0 / bframes=5 / b_pyramid=0 / b_adapt=1 / b_bias=0 / direct=1 / weightb=1 / open_gop=0 / weightp=2 / keyint=250 / keyint_min=23 / scenecut=40 / intra_refresh=0 / rc_lookahead=40 / rc=abr / mbtree=1 / bitrate=6000 / ratetol=1.0 / qcomp=0.60 / qpmin=3 / qpmax=69 / qpstep=4 / vbv_maxrate=12000 / vbv_bufsize=12000 / nal_hrd=vbr / filler=0 / ip_ratio=1.40 / aq=1:1.00
Encoded date                   : UTC 2016-10-05 18:25:31
Tagged date                    : UTC 2016-10-05 18:45:55
Color primaries                : BT.709
Transfer characteristics       : BT.709
Matrix coefficients            : BT.709

Audio
ID                             : 1
Format                         : AAC
Format/Info                    : Advanced Audio Codec
Format profile                 : LC
Codec ID                       : 40
Duration                       : 3mn 56s
Source duration                : 3mn 56s
Bit rate mode                  : Variable
Bit rate                       : 125 Kbps
Maximum bit rate               : 132 Kbps
Channel(s)                     : 2 channels
Channel positions              : Front: L R
Sampling rate                  : 48.0 KHz
Compression mode               : Lossy
Stream size                    : 3.53 MiB (2%)
Source stream size             : 3.53 MiB (2%)
Encoded date                   : UTC 2016-10-05 18:25:31
Tagged date                    : UTC 2016-10-05 18:45:55
游客,如果您要查看本帖隐藏内容请回复

素材TV——高清视频素材 高清MV 高清广告 4K视频 4K视频下载 AE模板 无损音乐 LED背景视频 高清纪录片下载
素材TV—最专业的影视素材分享平台,有了你的支持,我们会做的更好……
回复

使用道具 举报

使用高级回帖 (可批量传图、插入视频等)

发表回复

您需要登录后才可以回帖 登录 | 立即注册

本版积分规则   Ctrl + Enter 快速发布  

发帖时请遵守我国法律,网站会将有关你发帖内容、时间以及发帖IP地址等记录保留,只要接到合法请求,即会将信息提供给有关政府机构。
Powered by Discuz! X3.2 滇ICP备15000709号-1    |网站地图
Copyright © 2011-2015 Www.SucaiTV.Com All Rights Reserved.
快速回复 返回顶部 返回列表
keywords:高清视频素材 高清MV 高清广告 4K视频 AE模板 无损音乐 LED背景视频