素材TV

 找回密码
 立即注册

QQ登录

只需一步,快速开始

[韩国MV] [素材TV]KYUHYUN(Super Junior) - A Million Pieces(Bugs!)[BD/MP4/1.24GB]高清MV视频下载

[复制链接]

该用户从未签到

49

主题

1084

帖子

27

素材币

素材尊者

Rank: 6Rank: 6

积分
1135
QQ
发表于 2016-1-12 02:00:41 | 显示全部楼层 |阅读模式

 充值月费VIP  免回复 每日送素材币

 充值年费VIP  免回复 免素材币 各种VIP资源 任意下载

 VIP介绍详情请点击

[素材TV]KYUHYUN(Super Junior) - A Million Pieces(Bugs!)[BD/MP4/1.24GB]高清MV视频下载

[素材TV]KYUHYUN(Super Junior) - A Million Pieces(Bugs!)[BD/MP4/1.24GB]高清MV视频下载,素材TV

  • General
  • Format                         : MPEG-4
  • Codec ID                       : M4V  (M4V /mp42/isom)
  • File size                      : 1.24 GiB
  • Duration                       : 7mn 18s
  • Overall bit rate mode          : Variable
  • Overall bit rate               : 24.4 Mbps
  • Encoded date                   : UTC 2015-10-13 09:28:33
  • Tagged date                    : UTC 2015-10-13 09:28:51
  • ㏕IM                            : 00:00:00:00
  • ㏕SC                            : 24000
  • ㏕SZ                            : 1001

  • Video
  • ID                             : 1
  • Format                         : AVC
  • Format/Info                    : Advanced Video Codec
  • Format profile                 : High@L4
  • Format settings, CABAC         : No
  • Format settings, ReFrames      : 2 frames
  • Codec ID                       : avc1
  • Codec ID/Info                  : Advanced Video Coding
  • Duration                       : 7mn 18s
  • Bit rate mode                  : Variable
  • Bit rate                       : 24.2 Mbps
  • Maximum bit rate               : 25.0 Mbps
  • Width                          : 1 920 pixels
  • Height                         : 1 080 pixels
  • Display aspect ratio           : 16:9
  • Frame rate mode                : Constant
  • Frame rate                     : 23.976 (24000/1001) fps
  • Standard                       : NTSC
  • Color space                    : YUV
  • Chroma subsampling             : 4:2:0
  • Bit depth                      : 8 bits
  • Scan type                      : Progressive
  • Bits/(Pixel*Frame)             : 0.487
  • Stream size                    : 1.24 GiB (99%)
  • Language                       : English
  • Encoded date                   : UTC 2015-10-13 09:28:33
  • Tagged date                    : UTC 2015-10-13 09:28:33
  • Color range                    : Limited
  • Color primaries                : BT.709
  • Transfer characteristics       : BT.709
  • Matrix coefficients            : BT.709

  • Audio
  • ID                             : 2
  • Format                         : AAC
  • Format/Info                    : Advanced Audio Codec
  • Format profile                 : LC
  • Codec ID                       : 40
  • Duration                       : 7mn 18s
  • Source duration                : 7mn 18s
  • Bit rate mode                  : Variable
  • Bit rate                       : 157 Kbps
  • Maximum bit rate               : 255 Kbps
  • Channel(s)                     : 2 channels
  • Channel positions              : Front: L R
  • Sampling rate                  : 48.0 KHz
  • Frame rate                     : 46.875 fps (1024 spf)
  • Compression mode               : Lossy
  • Stream size                    : 8.22 MiB (1%)
  • Source stream size             : 8.22 MiB (1%)
  • Language                       : English
  • Encoded date                   : UTC 2015-10-13 09:28:33
  • Tagged date                    : UTC 2015-10-13 09:28:33
复制代码
游客,如果您要查看本帖隐藏内容请回复


瑞士真的好漂亮 T T 以后有机会一定要去!
自购于Bugs 请尊重劳动成果^^
圭贤的声线真的超适合秋天啊~



素材TV提醒您:所有发表内容,均来源于网络;仅供网友互相交流学习之用;请勿用于商业用途!所有版权归原作者及唱片公司所有;请在下载后24小时内删除!
素材TV—最专业的影视素材分享平台,有了你的支持,我们会做的更好……
回复

使用道具 举报

该用户从未签到

0

主题

6

帖子

0

素材币

素材特使

Rank: 3Rank: 3

积分
212
发表于 2016-1-21 15:24:13 | 显示全部楼层

 充值月费VIP  免回复 每日送素材币

 充值年费VIP  免回复 免素材币 各种VIP资源 任意下载

 VIP介绍详情请点击

感谢楼主分享 [素材TV]KYUHYUN(Super Junior) - A Million Pieces(Bugs!)[BD/MP4/1.24GB]高清MV视频下载,素材TV
素材TV—最专业的影视素材分享平台,有了你的支持,我们会做的更好……
回复 支持 反对

使用道具 举报

该用户从未签到

0

主题

16

帖子

0

素材币

素材新兵

Rank: 1

积分
44
发表于 2016-3-18 07:12:45 | 显示全部楼层

 充值月费VIP  免回复 每日送素材币

 充值年费VIP  免回复 免素材币 各种VIP资源 任意下载

 VIP介绍详情请点击

thank you for sharing this [素材TV]KYUHYUN(Super Junior) - A Million Pieces(Bugs!)[BD/MP4/1.24GB]高清MV视频下载,素材TV
素材TV—最专业的影视素材分享平台,有了你的支持,我们会做的更好……
回复 支持 反对

使用道具 举报

该用户从未签到

0

主题

1

帖子

0

素材币

素材新兵

Rank: 1

积分
6
发表于 2016-4-12 05:55:03 | 显示全部楼层

 充值月费VIP  免回复 每日送素材币

 充值年费VIP  免回复 免素材币 各种VIP资源 任意下载

 VIP介绍详情请点击

thanks for sharing.
素材TV—最专业的影视素材分享平台,有了你的支持,我们会做的更好……
回复 支持 反对

使用道具 举报

该用户从未签到

0

主题

1

帖子

0

素材币

素材新兵

Rank: 1

积分
6
发表于 2017-1-12 09:46:56 | 显示全部楼层

 充值月费VIP  免回复 每日送素材币

 充值年费VIP  免回复 免素材币 各种VIP资源 任意下载

 VIP介绍详情请点击

Nice, MANY THANKS, GREAT WORK
素材TV—最专业的影视素材分享平台,有了你的支持,我们会做的更好……
回复 支持 反对

使用道具 举报

使用高级回帖 (可批量传图、插入视频等)

发表回复

您需要登录后才可以回帖 登录 | 立即注册

本版积分规则   Ctrl + Enter 快速发布  

发帖时请遵守我国法律,网站会将有关你发帖内容、时间以及发帖IP地址等记录保留,只要接到合法请求,即会将信息提供给有关政府机构。
Powered by Discuz! X3.2 滇ICP备15000709号-1    |网站地图
Copyright © 2011-2015 Www.SucaiTV.Com All Rights Reserved.
快速回复 返回顶部 返回列表
keywords:高清视频素材 高清MV 高清广告 4K视频 AE模板 无损音乐 LED背景视频